Game of Thrones Temporada 5 Capitulo 7
Chak De India 2007 Hindi 1080p Blu-Ray x...

Have I Got a Bit More News for You S55E02. revittony

  • Category TV
  • Type HD
  • Language English
  • Total size 491.6 MB
  • Uploaded By revittony
  • Downloads 19
  • Last checked 47 minutes ago
  • Date uploaded 1 day ago
  • Seeders 10
  • Leechers 0

Infohash : 4AEA371269BEFE0800293ED2A9ED83E229FE1977


Format : MPEG-4
Format profile : Base Media
Codec ID : isom (isom/iso2/avc1/mp41)
File size : 729 MiB
Duration : 42 min 8 s
Overall bit rate mode : Variable
Overall bit rate : 2 420 kb/s
Collection : get_iplayer

Video
ID : 1
Format : AVC
Format/Info : Advanced Video Codec
Format profile : [email protected]
Format settings : CABAC / 2 Ref Frames
Format settings, CABAC : Yes
Format settings, RefFrames : 2 frames
Codec ID : avc1
Codec ID/Info : Advanced Video Coding
Duration : 42 min 8 s
Bit rate mode : Variable
Bit rate : 2 321 kb/s
Maximum bit rate : 3 500 kb/s
Width : 1 280 pixels
Height : 720 pixels
Display aspect ratio : 16:9
Frame rate mode : Constant
Frame rate : 25.000 FPS
Color space : YUV
Chroma subsampling : 4:2:0
Bit depth : 8 bits
Scan type : Progressive
Bits/(Pixel*Frame) : 0.101
Stream size : 699 MiB (96%)

Audio
ID : 2
Format : AAC
Format/Info : Advanced Audio Codec
Format profile : LC
Codec ID : mp4a-40-2
Duration : 42 min 8 s
Bit rate mode : Variable
Bit rate : 93.4 kb/s
Maximum bit rate : 94.9 kb/s
Channel(s) : 2 channels
Channel positions : Front: L R
Sampling rate : 48.0 kHz
Frame rate : 46.875 FPS (1024 SPF)
Compression mode : Lossy
Stream size : 28.1 MiB (4%)
Default : Yes
Alternate group : 1

Files:

  • Have I Got a Bit More News for You S55E02.mp4 (491.6 MB)

There are currently no comments. Feel free to leave one :)

Code:

  • udp://tracker.coppersurfer.tk:6969/announce
  • udp://tracker.zer0day.to:1337/announce
  • udp://tracker.leechers-paradise.org:6969