Evangelion 3.33.0 You Can (Not) Redo | 720p | BDRip | English Subbed | Anicoders | x265
Cień anioła / Dark Angel (2...

Mercur S01 E02 - 720p x264 - DAN (ENG SUBS) [BRSHNKV]

  • Category TV
  • Type HD
  • Language Danish
  • Total size 511.4 MB
  • Uploaded By Baryshnikov
  • Downloads 7
  • Last checked 27 minutes ago
  • Date uploaded 2 days ago
  • Seeders 10
  • Leechers 3

Infohash : E3C58340A64CB43696DA3AE4E7D773C45842D3C0

Inspired by real events, Something's Rockin' tells the fascinating story of the rise and fall of "Radio Mercur", a pirate radio station founded by a small group of music-loving dreamers in the late fifties.







Tech:

Format : MPEG-4
Format profile : Base Media / Version 2
Codec ID : mp42
File size : 511 MiB
Duration : 41mn 1s
Overall bit rate mode : Variable
Overall bit rate : 1 743 Kbps
Movie name : Mercur S01 E02 - x264 [BRSHNKV]
Encoded date : UTC 2018-04-15 11:39:37
Tagged date : UTC 2018-04-15 11:39:37
Writing application : HandBrake 1.0.2 2017012200

Video
ID : 1
Format : AVC
Format/Info : Advanced Video Codec
Format profile : [email protected]
Format settings, CABAC : Yes
Format settings, ReFrames : 14 frames
Codec ID : avc1
Codec ID/Info : Advanced Video Coding
Duration : 41mn 1s
Bit rate : 1 580 Kbps
Width : 1 024 pixels
Height : 576 pixels
Display aspect ratio : 16:9
Frame rate mode : Constant
Frame rate : 25.000 fps
Color space : YUV
Chroma subsampling : 4:2:0
Bit depth : 8 bits
Scan type : Progressive
Bits/(Pixel*Frame) : 0.107
Stream size : 463 MiB (91%)
Writing library : x264 core 148 r2708 86b7198
Encoded date : UTC 2018-04-15 11:39:37
Tagged date : UTC 2018-04-15 11:39:37
Color range : Limited
Color primaries : BT.601 PAL
Transfer characteristics : BT.709
Matrix coefficients : BT.601

Audio
ID : 2
Format : AAC
Format/Info : Advanced Audio Codec
Format profile : LC
Codec ID : 40
Duration : 41mn 1s
Bit rate mode : Variable
Bit rate : 157 Kbps
Channel(s) : 2 channels
Channel positions : Front: L R
Sampling rate : 48.0 KHz
Compression mode : Lossy
Stream size : 46.2 MiB (9%)
Title : Stereo / Stereo
Language : Danish
Encoded date : UTC 2018-04-15 11:39:37
Tagged date : UTC 2018-04-15 11:39:37

Files:

Mercur S01 E02 - 720p x264 - DAN (ENG SUBS) [BRSHNKV]
  • Mercur S01 E02 - x264 [BRSHNKV] .mp4 (511.3 MB)
  • Mercur S01 E02 - x264 [BRSHNKV] .ass (32.6 KB)
  • Mercur S01 E02 - x264 [BRSHNKV] .srt (26.6 KB)
  • Torrent Downloaded From Katcr.co - Kickasstorrents.txt (0.1 KB)

There are currently no comments. Feel free to leave one :)

Code:

  • udp://tracker.coppersurfer.tk:6969/announce