Bartender 2 1 6 MAC OS (Patched)
Now UK - 30 January 2018

Mercur S01 E02 - 720p x265 HEVC - DAN (ENG SUBS) [BRSHNKV]

  • Category TV
  • Type HEVC/x265
  • Language Danish
  • Total size 385.7 MB
  • Uploaded By Baryshnikov
  • Downloads 20
  • Last checked 40 minutes ago
  • Date uploaded 1 day ago
  • Seeders 9
  • Leechers 0

Infohash : 235998A99F27913FC5D4DC2D2237AA280F822D9F

Inspired by real events, Something's Rockin' tells the fascinating story of the rise and fall of "Radio Mercur", a pirate radio station founded by a small group of music-loving dreamers in the late fifties.








Tech:

Format : MPEG-4
Format profile : Base Media / Version 2
Codec ID : mp42
File size : 386 MiB
Duration : 41mn 1s
Overall bit rate mode : Variable
Overall bit rate : 1 314 Kbps
Movie name : Mercur S01 E02 - x265 HEVC [BRSHNKV]
Encoded date : UTC 2018-04-14 21:13:01
Tagged date : UTC 2018-04-14 21:13:01
Writing application : HandBrake 20160211184813-ffd8cb1-master 2016021301

Video
ID : 1
Format : HEVC
Format/Info : High Efficiency Video Coding
Format profile : Main [email protected]@Main
Codec ID : hev1
Codec ID/Info : High Efficiency Video Coding
Duration : 41mn 1s
Bit rate : 1 151 Kbps
Width : 1 024 pixels
Height : 576 pixels
Display aspect ratio : 16:9
Frame rate mode : Constant
Frame rate : 25.000 fps
Color space : YUV
Chroma subsampling : 4:2:0
Bit depth : 10 bits
Bits/(Pixel*Frame) : 0.078
Stream size : 338 MiB (88%)
Writing library : x265 1.9:[Mac OS X][clang 7.0.2][64 bit] 10bit
Encoded date : UTC 2018-04-14 21:13:01
Tagged date : UTC 2018-04-14 21:13:01
Color range : Limited
Color primaries : BT.601 PAL
Transfer characteristics : BT.709
Matrix coefficients : BT.601

Audio
ID : 2
Format : AAC
Format/Info : Advanced Audio Codec
Format profile : LC
Codec ID : 40
Duration : 41mn 1s
Bit rate mode : Variable
Bit rate : 157 Kbps
Channel(s) : 2 channels
Channel positions : Front: L R
Sampling rate : 48.0 KHz
Compression mode : Lossy
Stream size : 46.2 MiB (12%)
Title : Stereo / Stereo
Language : Danish
Encoded date : UTC 2018-04-14 21:13:01
Tagged date : UTC 2018-04-14 21:13:01

Files:

Mercur S01 E02 - 720p x265 HEVC - DAN (ENG SUBS) [BRSHNKV]
  • Mercur S01 E02 - x265 [BRSHNKV] .mp4 (385.6 MB)
  • Mercur S01 E02 - x265 [BRSHNKV] .ass (32.6 KB)
  • Mercur S01 E02 - x265 [BRSHNKV] .srt (26.6 KB)
  • Torrent Downloaded From Katcr.co - Kickasstorrents.txt (0.1 KB)

There are currently no comments. Feel free to leave one :)

Code:

  • udp://tracker.coppersurfer.tk:6969/announce