Fight Song Rachel Platten
Sea of Thieves

Heimebane (2018) S01 E01 - 720p x264 - NOR (ENG SUBS) [BRSHNKV]

  • Category TV
  • Type HD
  • Language Norwegian
  • Total size 586.7 MB
  • Uploaded By Baryshnikov
  • Downloads 20
  • Last checked 25 minutes ago
  • Date uploaded 2 days ago
  • Seeders 12
  • Leechers 0

Infohash : 69DAF34102C26ED346BD75E4A27D4596EC3207CF

When a newly promoted football club lose their trainer just before the start of the league season, a female, Helena Mikkelsen, gets the historic chance to coach the team, even before an ambitious retired professional.







Tech:

Format : MPEG-4
Format profile : Base Media / Version 2
Codec ID : mp42
File size : 587 MiB
Duration : 49mn 8s
Overall bit rate mode : Variable
Overall bit rate : 1 669 Kbps
Movie name : Heimebane S01 E01 - 720p x264 [BRSHNKV]
Encoded date : UTC 2018-04-15 15:15:57
Tagged date : UTC 2018-04-15 15:15:57
Writing application : HandBrake 1.0.2 2017012200

Video
ID : 1
Format : AVC
Format/Info : Advanced Video Codec
Format profile : [email protected]
Format settings, CABAC : Yes
Format settings, ReFrames : 9 frames
Codec ID : avc1
Codec ID/Info : Advanced Video Coding
Duration : 49mn 8s
Bit rate : 1 500 Kbps
Width : 1 280 pixels
Height : 692 pixels
Display aspect ratio : 1.85:1
Frame rate mode : Constant
Frame rate : 25.000 fps
Color space : YUV
Chroma subsampling : 4:2:0
Bit depth : 8 bits
Scan type : Progressive
Bits/(Pixel*Frame) : 0.068
Stream size : 527 MiB (90%)
Writing library : x264 core 148 r2708 86b7198
Encoded date : UTC 2018-04-15 15:15:57
Tagged date : UTC 2018-04-15 15:15:57
Color range : Limited
Color primaries : BT.709
Transfer characteristics : BT.709
Matrix coefficients : BT.709

Audio
ID : 2
Format : AAC
Format/Info : Advanced Audio Codec
Format profile : LC
Codec ID : 40
Duration : 49mn 8s
Bit rate mode : Variable
Bit rate : 163 Kbps
Channel(s) : 2 channels
Channel positions : Front: L R
Sampling rate : 48.0 KHz
Compression mode : Lossy
Stream size : 57.4 MiB (10%)
Title : Stereo / Stereo
Language : Norwegian Bokmal
Encoded date : UTC 2018-04-15 15:15:57
Tagged date : UTC 2018-04-15 15:15:57

Files:

Heimebane (2018) S01 E01 - 720p x264 - NOR (ENG SUBS) [BRSHNKV]
  • Heimebane S01 E01 - x264 [BRSHNKV] .mp4 (586.6 MB)
  • Heimebane S01 E01 - x264 [BRSHNKV] .ass (36.8 KB)
  • Heimebane S01 E01 - x264 [BRSHNKV] .srt (30.3 KB)
  • Torrent Downloaded From Katcr.co - Kickasstorrents.txt (0.1 KB)

Comments

Code:

  • udp://tracker.coppersurfer.tk:6969/announce