MADAME HYDE
Университетский вампирсмотреть онлайн

Heimebane (2018) S01 E01 - 720p x265 HEVC - NOR (ENG SUBS) [BRSHN...

  • Category TV
  • Type HEVC/x265
  • Language Norwegian
  • Total size 428.8 MB
  • Uploaded By Baryshnikov
  • Downloads 16
  • Last checked 55 minutes ago
  • Date uploaded 10 hours ago
  • Seeders 6
  • Leechers 4

Infohash : 21C3555F1ED0AE5413EB22CD3E480C416426659B

When a newly promoted football club lose their trainer just before the start of the league season, a female, Helena Mikkelsen, gets the historic chance to coach the team, even before an ambitious retired professional.







Tech:

Format : MPEG-4
Format profile : Base Media / Version 2
Codec ID : mp42
File size : 429 MiB
Duration : 49mn 8s
Overall bit rate mode : Variable
Overall bit rate : 1 220 Kbps
Movie name : Heimebane S01 E01 - 720p x265 HEVC [BRSHNKV]
Encoded date : UTC 2018-04-15 18:44:52
Tagged date : UTC 2018-04-15 18:44:52
Writing application : HandBrake 20160211184813-ffd8cb1-master 2016021301

Video
ID : 1
Format : HEVC
Format/Info : High Efficiency Video Coding
Format profile : Main [email protected]@Main
Codec ID : hev1
Codec ID/Info : High Efficiency Video Coding
Duration : 49mn 8s
Bit rate : 1 050 Kbps
Width : 1 280 pixels
Height : 692 pixels
Display aspect ratio : 1.85:1
Frame rate mode : Constant
Frame rate : 25.000 fps
Color space : YUV
Chroma subsampling : 4:2:0
Bit depth : 10 bits
Bits/(Pixel*Frame) : 0.047
Stream size : 369 MiB (86%)
Writing library : x265 1.9:[Mac OS X][clang 7.0.2][64 bit] 10bit
Encoded date : UTC 2018-04-15 18:44:52
Tagged date : UTC 2018-04-15 18:44:52
Color range : Limited
Color primaries : BT.709
Transfer characteristics : BT.709
Matrix coefficients : BT.709

Audio
ID : 2
Format : AAC
Format/Info : Advanced Audio Codec
Format profile : LC
Codec ID : 40
Duration : 49mn 8s
Bit rate mode : Variable
Bit rate : 163 Kbps
Channel(s) : 2 channels
Channel positions : Front: L R
Sampling rate : 48.0 KHz
Compression mode : Lossy
Stream size : 57.4 MiB (13%)
Title : Stereo / Stereo
Language : Norwegian Bokmal
Encoded date : UTC 2018-04-15 18:44:52
Tagged date : UTC 2018-04-15 18:44:52

Files:

Heimebane (2018) S01 E01 - 720p x265 HEVC - NOR (ENG SUBS) [BRSHNKV]
  • Heimebane S01 E01 - x265 [BRSHNKV] .mp4 (428.7 MB)
  • Heimebane S01 E01 - x265 [BRSHNKV] .ass (36.8 KB)
  • Heimebane S01 E01 - x265 [BRSHNKV] .srt (30.3 KB)
  • Torrent Downloaded From Katcr.co - Kickasstorrents.txt (0.1 KB)

There are currently no comments. Feel free to leave one :)

Code:

  • udp://tracker.coppersurfer.tk:6969/announce