Drod rpg tendrys tale GOG rar
Der Tanzabend (1930)

The.Terror.1x08.Attacco.All.Accampamento.ITA.ENG.1080p.WEBMux.H26...

  • Category TV
  • Type HD
  • Language English
  • Total size 3.2 GB
  • Uploaded By ppb1
  • Downloads 68
  • Last checked 1 hour ago
  • Date uploaded 10 hours ago
  • Seeders 97
  • Leechers 99

Infohash : C83AD39CED616C8A6794BBC35D7BB1CF4C806EB3



GIUSEPPEiCV & LITTLELINX
HANNO IL PIACERE DI PRESENTARE


STAGIONE 1
WEB-DLMUX 1080p




.: Dati Serie :.

Nazione : Stati Uniti d'America
Anno : 2018
Genere : Dramma
Stagioni 1
Episodi : 10
Durata : 47 min circa
Lingua : ITA - ENG
Cast :
Jared Harris Francis Crozier
Tobias Menzies James Fitzjames
Ciarán Hinds Captain John Franklin
Paul Ready Dr. Henry Goodsir
Ian Hart Thomas Blankly
Adam Nagaitis Cornelius Hickey
Edward Ashley William Gibson
Matthew McNulty HMS Terror 1st lieutenant Edward Little
Christos Lawton George Hodgson
Liam Garrigan Thomas Jopson
Ronan Raftery John Irving
Nive Nielsen Lady Silence

.: Trama  :.

The crew of a Royal Naval expedition searching for the Arctic's treacherous Northwest Passage discovers instead a monstrous predator.

Siamo nel 1845 e due navi della Royal Navy britannica, la Erebus e la Terror, stanno tentando un'impresa ambiziosa quanto pericolosa: affrontare territori ostili ed inesplorati dell'artico per trovare una rotta per attraversare il passaggio a nord-ovest. Con ben 129 uomini a bordo delle due imbarcazioni, sotto il comando di un veterano delle spedizioni artiche alla sua quarta ed ultima impresa, Sir John Franklin, la Erebus e la Terror restano intrappolate tra i ghiacci e non saranno più ritrovate fino al 2014, quando il rottame della prima è stato rinvenuto al largo dell'isola di King William, seguita due anni dopo dalla seconda nave. Cosa sia accaduto realmente alla spedizione è stato a lungo indagato e discusso, quel che è certo è che i marinai dell'equipaggio hanno dovuto affrontare una disperata lotta per la sopravvivenza in uno dei luoghi più difficili ed inospitali del pianeta.


.: Screenshot :.





.: Caratteristiche Tecniche :.
[spoiler]
The.Terror.1x01.Tutto.Per.Tutto.ITA.ENG.1080p.WEBMux.H264-Morpheus.mkv
Format                                   : Matroska
Format version                           : Version 4 / Version 2
File size                                : 2.54 GiB
Duration                                 : 46mn 59s
Overall bit rate mode                    : Variable
Overall bit rate                         : 7 739 Kbps
Encoded date                             : UTC 2018-03-26 21:49:29
Writing application                      : mkvmerge v7.6.0 ('Garden of Dreams') 64bit built on Feb  8 2015 15:12:28
Writing library                          : libebml v1.3.1 + libmatroska v1.4.2
DURATION                                 : 00:46:58.944000000
NUMBER_OF_FRAMES                         : 88092
NUMBER_OF_BYTES                          : 135309312
_STATISTICS_WRITING_APP                  : mkvmerge v7.6.0 ('Garden of Dreams') 64bit built on Feb  8 2015 15:12:28
_STATISTICS_WRITING_DATE_UTC             : 2018-03-26 21:49:29
_STATISTICS_TAGS                         : BPS DURATION NUMBER_OF_FRAMES NUMBER_OF_BYTES

Video
ID                                       : 1
Format                                   : AVC
Format/Info                              : Advanced Video Codec
Format profile                           : [email protected]
Format settings, CABAC                   : Yes
Format settings, ReFrames                : 4 frames
Codec ID                                 : V_MPEG4/ISO/AVC
Duration                                 : 46mn 59s
Bit rate mode                            : Variable
Bit rate                                 : 7 009 Kbps
Maximum bit rate                         : 15.0 Mbps
Width                                    : 1 920 pixels
Height                                   : 1 080 pixels
Display aspect ratio                     : 16:9
Frame rate                               : 23.976 fps
Color space                              : YUV
Chroma subsampling                       : 4:2:0
Bit depth                                : 8 bits
Scan type                                : Progressive
Bits/(Pixel*Frame)                       : 0.141
Stream size                              : 2.30 GiB (91%)
Language                                 : English
Default                                  : Yes
Forced                                   : No
Color primaries                          : BT.709-5, BT.1361, IEC 61966-2-4, SMPTE RP177
Transfer characteristics                 : BT.709-5, BT.1361
Matrix coefficients                      : BT.709-5, BT.1361, IEC 61966-2-4 709, SMPTE RP177

Audio #1
ID                                       : 2
Format                                   : AC-3
Format/Info                              : Audio Coding 3
Mode extension                           : CM (complete main)
Codec ID                                 : A_AC3
Duration                                 : 46mn 59s
Bit rate mode                            : Constant
Bit rate                                 : 192 Kbps
Channel(s)                               : 2 channels
Channel positions                        : Front: L R
Sampling rate                            : 48.0 KHz
Bit depth                                : 16 bits
Compression mode                         : Lossy
Stream size                              : 64.5 MiB (2%)
Title                                    : ITA
Language                                 : Italian
Default                                  : Yes
Forced                                   : Yes

Audio #2
ID                                       : 3
Format                                   : AC-3
Format/Info                              : Audio Coding 3
Mode extension                           : CM (complete main)
Codec ID                                 : A_AC3
Duration                                 : 46mn 59s
Bit rate mode                            : Constant
Bit rate                                 : 384 Kbps
Channel(s)                               : 6 channels
Channel positions                        : Front: L C R, Side: L R, LFE
Sampling rate                            : 48.0 KHz
Bit depth                                : 16 bits
Compression mode                         : Lossy
Stream size                              : 129 MiB (5%)
Title                                    : ENG
Language                                 : English
Default                                  : No
Forced                                   : No

Text #1
ID                                       : 4
Format                                   : UTF-8
Codec ID                                 : S_TEXT/UTF8
Codec ID/Info                            : UTF-8 Plain Text
Title                                    : ITA - Forced
Language                                 : Italian
Default                                  : Yes
Forced                                   : Yes

Text #2
ID                                       : 5
Format                                   : UTF-8
Codec ID                                 : S_TEXT/UTF8
Codec ID/Info                            : UTF-8 Plain Text
Language                                 : Italian
Default                                  : No
Forced                                   : No

Text #3
ID                                       : 6
Format                                   : UTF-8
Codec ID                                 : S_TEXT/UTF8
Codec ID/Info                            : UTF-8 Plain Text
Language                                 : English
Default                                  : No
Forced                                   : No

Text #4
ID                                       : 7
Format                                   : UTF-8
Codec ID                                 : S_TEXT/UTF8
Codec ID/Info                            : UTF-8 Plain Text
Title                                    : SDH
Language                                 : English
Default                                  : No
Forced                                   : No

Menu
00:00:00.000                             : en:Scene 1
00:00:32.000                             : en:Scene 2
00:02:45.000                             : en:Scene 3
00:07:06.000                             : en:Scene 4
00:10:45.000                             : en:Scene 5
00:11:15.000                             : en:Scene 6
00:15:37.000                             : en:Scene 7
00:19:30.000                             : en:Scene 8
00:22:08.000                             : en:Scene 9
00:26:26.000                             : en:Scene 10
00:33:02.000                             : en:Scene 11
00:37:46.000                             : en:Scene 12
00:41:58.000                             : en:Scene 13
00:46:28.000                             : en:Scene 14


[/spoiler]

.: Ringraziamenti :.




RESTATE IN SEED ALTRIMENTI

 




Files:

  • The.Terror.1x08.Attacco.All.Accampamento.ITA.ENG.1080p.WEBMux.H264-Morpheus.mkv (3.2 GB)

There are currently no comments. Feel free to leave one :)

Code:

  • http://tracker.tntvillage.scambioetico.org:2710/announce
  • udp://tracker.opentrackr.org:1337/announce
  • udp://9.rarbg.me:2710/announce
  • udp://tracker.leechers-paradise.org:6969/announce
  • http://tracker.tfile.me/announce
  • udp://explodie.org:6969/announce
  • udp://public.popcorn-tracker.org:6969/announce
  • http://torrentsmd.com:8080/announce