Joyner Lucas
Mike and Dave Need Wedding Dates online filmovi sa prevodom

Dear Dictator (2017) 720p BluRay x264 AC-3 850MB - MovCR

  • Category Movies
  • Type h.264/x264
  • Language English
  • Total size 847.6 MB
  • Uploaded By ictv
  • Downloads 9
  • Last checked 30 minutes ago
  • Date uploaded 13 hours ago
  • Seeders 5
  • Leechers 3

Dear Dictator

Comedy

When political turmoil forces a British-Caribbean dictator to flee his island nation, he seeks refuge and hides with a rebellious teenage girl in suburban America, and ends up teaching the young teen how to start a revolution and overthrow the "mean girls" in her high school.

Infohash : F515CB12B7920E8C0AFF402F5BABC5C8620BFCF8

Visit www.movcr.com

Dear Dictator (2017) 720p BluRay x264 AC-3 850MB - MovCR

http://www.imdb.com/title/tt5779540/



General
Unique ID : 223537486417929667577976646030859110196 (0xA82BC0FE2F032AA3B40B0B05F8EB0734)
Complete name : [www.MovCR.com] Dear Dictator (2017) 720p BluRay x264 AC-3 850MB - MovCR\www.MovCR.com - Dear Dictator (2017) 720p BluRay x264 AC-3 850MB - MovCR.mkv
Format : Matroska
Format version : Version 4 / Version 2
File size : 848 MiB
Duration : 1 h 30 min
Overall bit rate : 1 312 kb/s
Movie name : www.MovCR.com
Encoded date : UTC 2018-04-17 13:12:27
Writing application : mkvmerge v9.5.0 ('Quiet Fire') 64bit
Writing library : libebml v1.3.4 + libmatroska v1.4.5

Video
ID : 1
Format : AVC
Format/Info : Advanced Video Codec
Format profile : [email protected]
Format settings : CABAC / 4 Ref Frames
Format settings, CABAC : Yes
Format settings, RefFrames : 4 frames
Codec ID : V_MPEG4/ISO/AVC
Duration : 1 h 30 min
Bit rate : 927 kb/s
Width : 1 272 pixels
Height : 688 pixels
Display aspect ratio : 1.85:1
Frame rate mode : Constant
Frame rate : 23.976 (24000/1001) FPS
Color space : YUV
Chroma subsampling : 4:2:0
Bit depth : 8 bits
Scan type : Progressive
Bits/(Pixel*Frame) : 0.044
Stream size : 598 MiB (71%)
Title : www.MovCR.com
Writing library : x264 core 155 r2901 7d0ff22
Encoding settings : cabac=1 / ref=3 / deblock=1:0:0 / analyse=0x3:0x113 / me=hex / subme=7 / psy=1 / psy_rd=1.00:0.00 / mixed_ref=1 / me_range=16 / chroma_me=1 / trellis=1 / 8x8dct=1 / cqm=0 / deadzone=21,11 / fast_pskip=1 / chroma_qp_offset=-2 / threads=12 / lookahead_threads=2 / sliced_threads=0 / nr=0 / decimate=1 / interlaced=0 / bluray_compat=0 / constrained_intra=0 / bframes=3 / b_pyramid=2 / b_adapt=1 / b_bias=0 / direct=1 / weightb=1 / open_gop=0 / weightp=2 / keyint=240 / keyint_min=23 / scenecut=40 / intra_refresh=0 / rc_lookahead=40 / rc=2pass / mbtree=1 / bitrate=927 / ratetol=1.0 / qcomp=0.60 / qpmin=0 / qpmax=69 / qpstep=4 / cplxblur=20.0 / qblur=0.5 / ip_ratio=1.40 / aq=1:1.00
Default : Yes
Forced : No

Audio
ID : 2
Format : AC-3
Format/Info : Audio Coding 3
Codec ID : A_AC3
Duration : 1 h 30 min
Bit rate mode : Constant
Bit rate : 384 kb/s
Channel(s) : 6 channels
Channel positions : Front: L C R, Side: L R, LFE
Sampling rate : 48.0 kHz
Frame rate : 31.250 FPS (1536 SPF)
Bit depth : 16 bits
Compression mode : Lossy
Stream size : 248 MiB (29%)
Title : www.MovCR.com
Language : English
Service kind : Complete Main
Default : Yes
Forced : No









Files:

[www.MovCR.com] Dear Dictator (2017) 720p BluRay x264 AC-3 850MB - MovCR
  • www.MovCR.com - Dear Dictator (2017) 720p BluRay x264 AC-3 850MB - MovCR.mkv (847.6 MB)
  • www.MovCR.com.txt (0.0 KB)

There are currently no comments. Feel free to leave one :)

Code:

  • udp://tracker.coppersurfer.tk:6969/announce
  • udp://tracker.open-internet.nl:6969/announce
  • udp://tracker.skyts.net:6969/announce
  • udp://tracker.piratepublic.com:1337/announce
  • udp://tracker.opentrackr.org:1337/announce
  • udp://9.rarbg.to:2710/announce
  • udp://p4p.arenabg.com:1337/announce
  • udp://public.popcorn-tracker.org:6969/announce
  • udp://wambo.club:1337/announce
  • udp://retracker.nts.su:2710/announce
  • udp://packages.crunchbangplusplus.org:6969/announce
  • udp://104.238.198.186:8000/announce
  • http://tracker2.itzmx.com:6961/announce
  • http://tracker.vanitycore.co:6969/announce
  • http://tracker.torrentyorg.pl:80/announce
  • http://tracker.tfile.me:80/announce
  • http://tracker.mg64.net:6881/announce
  • http://tracker.electro-torrent.pl:80/announce
  • http://torrentsmd.me:8080/announce
  • http://share.camoe.cn:8080/announce
  • http://servandroidkino.ru:80/announce
  • http://p4p.arenabg.com:1337/announce
  • http://open.acgtracker.com:1096/announce
  • http://omg.wtftrackr.pw:1337/announce
  • http://mgtracker.org:6969/announce
  • http://bt.dl1234.com:80/announce
  • http://agusiq-torrents.pl:6969/announce
  • http://104.238.198.186:8000/announce